Jeremy.Soule.-.[上古卷轴3.晨风.-.The.Elder.Scrolls.3.Morrowind.OST].专辑.(APE).rar 158.59MB
内容介绍:

简介:

专辑介绍:

由美国Bethesda Softworks公司制作的《上古卷轴》(The Elder Scrolls)系列游戏在欧美RPG游戏中是相当知名的。它的前两代作品1994年的《竞技场》和1996年的《匕首雨》在当时都获得了极高的评价,市场的销量也相当不错。《上古卷轴3:晨风》(The Elder Scrolls 3: Morrowind)故事大概讲述了在一个庞大而错综复杂的世界,居住着数千个非战斗角色和妖怪。它由一片名为Vvardenfell的岛屿组成,该岛的原住民本是黑暗精灵,但是大约400年前,它的统治权被人类的国王接管了,于是,随着地区差异的不断增大,种族的纷争日趋激烈。游戏从主角被流放到这个岛屿上开始,为了再次获得自由及平息战火,玩家必须努力完成看守交代的任务,并且调查一个被称为blight的神秘诅咒。本游戏曾在国内发行过中文版,尽管游戏本身素质优秀,但由于翻译质量低劣,受到广泛批判。

这张CD是游戏的OST,收录了所有游戏配乐,作曲家为Jeremy Soule。下载后请用记事本打开CUE文件,把以下CUE粘贴进去,换掉原来的CUE。记得在最后一行加个回车。

引用

PERFORMER "Jeremy Soule"

TITLE "The Elder Scrolls III - Morrowind"

FILE "Morrowind.ape" WAVE

TRACK 01 AUDIO

TITLE "Call Of Magic"

INDEX 01 00:00:00

TRACK 02 AUDIO

TITLE "Desperation"

INDEX 01 01:56:14

TRACK 03 AUDIO

TITLE "Dark Caverns"

INDEX 01 04:04:69

TRACK 04 AUDIO

TITLE "Trick Suspence"

INDEX 01 07:11:67

TRACK 05 AUDIO

TITLE "Peace At Last"

INDEX 01 09:18:68

TRACK 06 AUDIO

TITLE "Traveling Fanfare"

INDEX 01 12:26:67

TRACK 07 AUDIO

TITLE "Main Theme"

INDEX 01 14:42:38

TRACK 08 AUDIO

TITLE "Choices Made"

INDEX 01 17:59:74

TRACK 09 AUDIO

TITLE "Seperation"

INDEX 01 20:20:44

TRACK 10 AUDIO

TITLE "Theme 10"

INDEX 01 23:38:69

TRACK 11 AUDIO

TITLE "Rise To Reality"

INDEX 01 26:14:39

TRACK 12 AUDIO

TITLE "Break The Cycle"

INDEX 01 29:27:66

TRACK 13 AUDIO

TITLE "Love Lost"

INDEX 01 31:41:23

TRACK 14 AUDIO

TITLE "Forever There"

INDEX 01 34:56:26

TRACK 15 AUDIO

TITLE "Ending Theme"

INDEX 01 37:01:43

专辑曲目:

01.Call Of Magic

02.Desperation

03.Dark Caverns

04.Unity

05.Peace At Last

06.Traveling Fanfare

07.Main Theme

08.Choices Made

09.Seperation

10.Trick Suspence

11.Rise To Reality

12.Break The Cycle

13.Love Lost

14.Forever There

15.Ending Theme

相关资源:
交易平台开发商